#TITLE:天国;
#SUBTITLE:;
#ARTIST:Big Mama;
#TITLETRANSLIT:;
#SUBTITLETRANSLIT:;
#ARTISTTRANSLIT:;
#CREDIT:;
#BANNER:-logo.jpg;
#BACKGROUND:.jpg;
#LYRICSPATH:;
#CDTITLE:Lan.png;
#MUSIC:.mp3;
#OFFSET:-0.020;
#SAMPLESTART:100.000;
#SAMPLELENGTH:12.000;
#SELECTABLE:YES;
#BPMS:0.000=127.000;
#STOPS:;
#BGCHANGES:;
// cache tags:
#FIRSTBEAT:19.750;
#LASTBEAT:260.000;
#SONGFILENAME:Songs/lan sky//.sm;
#HASMUSIC:1;
#HASBANNER:1;
#MUSICLENGTH:124.568;
// end cache tags

//---------------dance-single - sky----------------
#NOTES:
     dance-single:
     sky:
     Hard:
     9:
     0.796,1.000,1.000,0.209,0.293,470.000,182.000,26.000,0.000,29.000:

0000
0000
0000
0000
,
0000
0000
0000
0000
,
0000
0000
0000
0000
,
0000
0000
0000
0000
,
0000
0000
0000
0000
0000
0000
0000
0000
0000
0000
0000
0000
0000
0000
0000
0010
,
0100
1000
0000
0000
0011
0000
0000
0010
0100
1000
0000
0000
1100
0000
0000
0100
,
0010
0001
0000
0000
1010
0000
0000
1000
0100
0010
0000
0000
0101
0000
0000
0100
,
1010
1001
1000
1000
1011
1000
1000
1001
1010
1100
1000
1000
1101
1000
1000
1100
,
1010
1001
1000
1000
1110
1000
1000
1001
1010
1100
1000
1000
1011
1000
1000
1000
,
0110
0001
1100
0010
0101
0100
0011
1000
,
0110
0010
1010
0001
0101
0010
0011
1000
,
1100
1000
0101
0001
0110
0100
1010
0001
,
1100
0001
0101
1000
0011
0010
1001
0100
,
0110
0001
1010
1000
0101
0010
0011
0100
,
1010
1000
0101
0001
0110
0001
0011
0010
,
1100
1000
0110
0001
1001
0010
0101
1000
,
1101
0001
0011
0001
1101
0001
0101
0001
1101
0001
0011
0001
1101
0001
1001
0001
,
0100
0010
1100
0001
0100
0001
0011
0100
,
0010
0001
1010
0100
0001
0010
0101
1000
,
0010
0100
0011
0010
1000
0001
1100
0010
,
0001
0100
1010
0001
0100
0001
0011
1000
,
1000
0010
0110
0001
0010
0100
1010
0010
,
0001
0100
0110
1000
0010
0100
1010
1000
,
0100
0001
0110
1000
0001
0010
1001
0100
,
1010
1000
1001
1000
1011
1000
1100
1000
1001
1000
1010
1000
1011
1000
1001
1000
,
0110
0001
1100
0010
0101
0100
0011
1000
,
0110
0010
1010
0001
0101
0010
0011
1000
,
1100
1000
0101
0001
0110
0100
1010
0001
,
1100
0001
0101
1000
0011
0010
1001
0100
,
0110
0001
1010
1000
0101
0010
0011
0100
,
1010
1000
0101
0001
0110
0001
0011
0010
,
1100
1000
0110
0001
1001
0010
0101
1000
,
1101
0001
0011
0001
1101
0001
0101
0001
1101
0001
1001
0001
1101
0001
0011
0001
,
2000
0000
0000
0000
,
3200
0000
0000
0000
,
0320
0000
0000
0000
,
0032
0000
0000
0000
,
2103
0010
0001
0100
,
3210
0001
1000
0010
,
0321
1000
0100
0001
,
1032
1000
1000
1000
1000
1000
1000
1000
1000
1000
1000
1000
1000
1000
1000
1000
,
0113
0001
1100
0010
0101
0100
0011
1000
,
0110
0010
1010
0001
0101
0010
0011
1000
,
1100
1000
0101
0001
0110
0100
1010
0001
,
1100
0001
0101
1000
0011
0010
1001
0100
,
0110
0001
1010
1000
0101
0010
0011
0100
,
1010
1000
0101
0001
0110
0001
0011
0010
,
1100
1000
0110
0001
1001
0010
0101
1000
,
2112
0010
0110
0100
0110
0010
0110
0100
,
3113
1000
1000
0000
0110
0001
0001
0000
0110
1000
1000
0000
0110
0001
0001
0000
,
1100
1000
1000
0000
0011
0001
0001
0000
1100
1000
1000
0000
0011
0001
0001
0000
,
1100
0001
0001
0000
0011
1000
1000
0000
1100
0001
0001
0000
0011
1000
1000
0000
,
0110
0001
0001
0000
0110
1000
1000
0000
0110
0001
0001
0000
0110
1000
1000
0000
,
0110
0001
1100
0010
0101
0100
0011
1000
,
0110
0010
1010
0001
0101
0010
0011
1000
,
1100
1000
0101
0001
0110
0100
1010
0001
,
1100
0001
0101
1000
0011
0010
1001
0100
,
2000
0100
3020
0001
,
0230
1000
0302
0010
,
2003
0100
3020
0001
,
0230
1000
0302
0010
,
2003
0100
3020
0001
,
0230
1000
0302
0010
,
2003
0100
3020
0001
,
2230
0000
0000
0000
,
3300
0000
0000
0000
;
